osu file format v14

[General]
AudioFilename: Shangri-La Shower.mp3
AudioLeadIn: 1500
PreviewTime: 71005
Countdown: 0
SampleSet: None
StackLeniency: 0.7
Mode: 3
LetterboxInBreaks: 0
WidescreenStoryboard: 0

[Editor]
Bookmarks: 54765
DistanceSpacing: 1.6
BeatDivisor: 4
GridSize: 8
TimelineZoom: 3.199999

[Metadata]
Title:Shangri-La Shower
TitleUnicode:Shangri-La Shower
Artist:u's
ArtistUnicode:μ's
Creator:dosyeru
Version:Honk Mania
Source:Love Live! School idol project
Tags:
BeatmapID:795472
BeatmapSetID:362163

[Difficulty]
HPDrainRate:6
CircleSize:6
OverallDifficulty:7
ApproachRate:8
SliderMultiplier:1.8
SliderTickRate:2

[Events]
//Background and Video events
0,0,"Shangri-La_Shower.jpg",0,0
//Break Periods
//Storyboard Layer 0 (Background)
//Storyboard Layer 1 (Fail)
//Storyboard Layer 2 (Pass)
//Storyboard Layer 3 (Foreground)
//Storyboard Sound Samples

[TimingPoints]
630,451.127819548872,4,2,1,5,1,0

[Colours]
Combo1 : 134,251,160
Combo2 : 137,239,248
Combo3 : 179,137,248
Combo4 : 221,249,136

[HitObjects]
128,192,630,128,0,2434:0:0:0:0:
384,192,630,128,0,2434:0:0:0:0:
213,192,2434,1,0,0:0:0:0:
42,192,2434,1,0,0:0:0:0:
298,192,2547,1,0,0:0:0:0:
384,192,2660,1,0,0:0:0:0:
469,192,2772,1,0,0:0:0:0:
213,192,2885,1,0,0:0:0:0:
42,192,2885,1,0,0:0:0:0:
298,192,2998,1,0,0:0:0:0:
384,192,3111,1,0,0:0:0:0:
469,192,3223,1,0,0:0:0:0:
42,192,3336,1,0,0:0:0:0:
213,192,3336,1,0,0:0:0:0:
298,192,3449,1,0,0:0:0:0:
384,192,3562,1,0,0:0:0:0:
128,192,3675,1,0,0:0:0:0:
42,192,3787,1,0,0:0:0:0:
213,192,3787,1,0,0:0:0:0:
298,192,3900,1,0,0:0:0:0:
384,192,4013,1,0,0:0:0:0:
128,192,4013,1,0,0:0:0:0:
469,192,4126,1,0,0:0:0:0:
384,192,4239,1,0,0:0:0:0:
42,192,4239,1,0,0:0:0:0:
213,192,4351,1,0,0:0:0:0:
298,192,4464,1,0,0:0:0:0:
128,192,4464,1,0,0:0:0:0:
384,192,4577,1,0,0:0:0:0:
469,192,4690,1,0,0:0:0:0:
213,192,4690,1,0,0:0:0:0:
298,192,4802,1,0,0:0:0:0:
42,192,4915,1,0,0:0:0:0:
384,192,4915,1,0,0:0:0:0:
128,192,5028,1,0,0:0:0:0:
469,192,5141,1,0,0:0:0:0:
213,192,5141,1,0,0:0:0:0:
384,192,5254,1,0,0:0:0:0:
128,192,5366,1,0,0:0:0:0:
298,192,5366,1,0,0:0:0:0:
213,192,5479,1,0,0:0:0:0:
384,192,5479,1,0,0:0:0:0:
42,192,5592,1,0,0:0:0:0:
469,192,5592,1,0,0:0:0:0:
213,192,5705,1,0,0:0:0:0:
384,192,5817,1,0,0:0:0:0:
128,192,5930,1,0,0:0:0:0:
42,192,6043,128,0,6381:0:0:0:0:
213,192,6043,128,0,6381:0:0:0:0:
298,192,6043,1,0,0:0:0:0:
469,192,6043,1,0,0:0:0:0:
384,192,6494,1,0,0:0:0:0:
128,192,6494,1,0,0:0:0:0:
469,192,6720,1,0,0:0:0:0:
42,192,6720,1,0,0:0:0:0:
384,192,6945,128,0,7284:0:0:0:0:
298,192,6945,128,0,7284:0:0:0:0:
128,192,6945,1,0,0:0:0:0:
213,192,6945,1,0,0:0:0:0:
469,192,7396,1,0,0:0:0:0:
42,192,7396,1,0,0:0:0:0:
213,192,7622,1,0,0:0:0:0:
298,192,7622,1,0,0:0:0:0:
469,192,7848,128,0,8073:0:0:0:0:
42,192,7848,128,0,8073:0:0:0:0:
128,192,7848,1,0,0:0:0:0:
384,192,7848,1,0,0:0:0:0:
213,192,8073,1,0,0:0:0:0:
298,192,8186,1,0,0:0:0:0:
42,192,8299,128,0,8524:0:0:0:0:
469,192,8299,128,0,8524:0:0:0:0:
128,192,8299,1,0,0:0:0:0:
384,192,8299,1,0,0:0:0:0:
213,192,8524,1,0,0:0:0:0:
298,192,8637,1,0,0:0:0:0:
42,192,8750,128,0,8863:0:0:0:0:
469,192,8750,128,0,8863:0:0:0:0:
384,192,8750,1,0,0:0:0:0:
128,192,8750,1,0,0:0:0:0:
213,192,8863,1,0,0:0:0:0:
298,192,8863,1,0,0:0:0:0:
42,192,8975,128,0,9088:0:0:0:0:
469,192,8975,128,0,9088:0:0:0:0:
384,192,8975,1,0,0:0:0:0:
128,192,8975,1,0,0:0:0:0:
298,192,9088,1,0,0:0:0:0:
213,192,9088,1,0,0:0:0:0:
384,192,9201,1,0,0:0:0:0:
128,192,9201,1,0,0:0:0:0:
42,192,9314,1,0,0:0:0:0:
469,192,9314,1,0,0:0:0:0:
213,192,9426,1,0,0:0:0:0:
298,192,9426,1,0,0:0:0:0:
384,192,9539,1,0,0:0:0:0:
128,192,9539,1,0,0:0:0:0:
42,192,9652,1,0,0:0:0:0:
213,192,9652,1,0,0:0:0:0:
469,192,9652,1,0,0:0:0:0:
128,192,9878,1,0,0:0:0:0:
298,192,9878,1,0,0:0:0:0:
42,192,10103,1,0,0:0:0:0:
469,192,10103,1,0,0:0:0:0:
213,192,10103,1,0,0:0:0:0:
128,192,10329,1,0,0:0:0:0:
298,192,10329,1,0,0:0:0:0:
213,192,10554,1,0,0:0:0:0:
384,192,10554,1,0,0:0:0:0:
298,192,10780,1,0,0:0:0:0:
469,192,10780,1,0,0:0:0:0:
128,192,10780,1,0,0:0:0:0:
42,192,11005,1,0,0:0:0:0:
213,192,11005,1,0,0:0:0:0:
384,192,11005,1,0,0:0:0:0:
128,192,11231,1,0,0:0:0:0:
298,192,11231,1,0,0:0:0:0:
384,192,11457,1,0,0:0:0:0:
42,192,11457,1,0,0:0:0:0:
469,192,11682,1,0,0:0:0:0:
213,192,11682,1,0,0:0:0:0:
128,192,11908,1,0,0:0:0:0:
298,192,11908,1,0,0:0:0:0:
384,192,12133,1,0,0:0:0:0:
42,192,12133,1,0,0:0:0:0:
213,192,12133,1,0,0:0:0:0:
298,192,12359,1,0,0:0:0:0:
128,192,12359,1,0,0:0:0:0:
128,192,12584,1,0,0:0:0:0:
298,192,12697,1,0,0:0:0:0:
42,192,12810,1,0,0:0:0:0:
213,192,12810,1,0,0:0:0:0:
384,192,12810,1,0,0:0:0:0:
384,192,12923,1,0,0:0:0:0:
298,192,13036,1,0,0:0:0:0:
128,192,13036,1,0,0:0:0:0:
42,192,13261,1,0,0:0:0:0:
213,192,13261,1,0,0:0:0:0:
469,192,13487,1,0,0:0:0:0:
128,192,13487,1,0,0:0:0:0:
298,192,13487,1,0,0:0:0:0:
384,192,13712,1,0,0:0:0:0:
42,192,13712,1,0,0:0:0:0:
298,192,13938,1,0,0:0:0:0:
128,192,13938,1,0,0:0:0:0:
384,192,14163,128,0,14389:0:0:0:0:
213,192,14163,1,0,0:0:0:0:
128,192,14389,1,0,0:0:0:0:
298,192,14389,1,0,0:0:0:0:
384,192,14502,1,0,0:0:0:0:
42,192,14614,1,0,0:0:0:0:
213,192,14614,1,0,0:0:0:0:
469,192,14840,128,0,15291:0:0:0:0:
128,192,14840,1,0,0:0:0:0:
298,192,14840,1,0,0:0:0:0:
213,192,15066,1,0,0:0:0:0:
384,192,15066,1,0,0:0:0:0:
298,192,15291,1,0,0:0:0:0:
42,192,15291,1,0,0:0:0:0:
298,192,15517,128,0,15742:0:0:0:0:
213,192,15517,1,0,0:0:0:0:
469,192,15742,1,0,0:0:0:0:
42,192,15742,1,0,0:0:0:0:
128,192,15799,1,0,0:0:0:0:
213,192,15855,1,0,0:0:0:0:
298,192,15911,1,0,0:0:0:0:
384,192,15968,128,0,16419:0:0:0:0:
128,192,15968,1,0,0:0:0:0:
128,192,16193,1,0,0:0:0:0:
213,192,16306,1,0,0:0:0:0:
469,192,16419,1,0,0:0:0:0:
298,192,16419,1,0,0:0:0:0:
213,192,16532,1,0,0:0:0:0:
128,192,16532,1,0,0:0:0:0:
298,192,16645,1,0,0:0:0:0:
384,192,16645,1,0,0:0:0:0:
213,192,16757,1,0,0:0:0:0:
128,192,16757,1,0,0:0:0:0:
469,192,16870,128,0,17321:0:0:0:0:
298,192,16870,1,0,0:0:0:0:
42,192,16870,1,0,0:0:0:0:
213,192,17096,1,0,0:0:0:0:
384,192,17096,1,0,0:0:0:0:
42,192,17321,1,0,0:0:0:0:
298,192,17321,1,0,0:0:0:0:
128,192,17321,1,0,0:0:0:0:
213,192,17547,1,0,0:0:0:0:
469,192,17547,1,0,0:0:0:0:
384,192,17772,1,0,0:0:0:0:
128,192,17772,1,0,0:0:0:0:
469,192,17998,1,0,0:0:0:0:
298,192,17998,1,0,0:0:0:0:
213,192,17998,1,0,0:0:0:0:
42,192,18223,1,0,0:0:0:0:
128,192,18223,1,0,0:0:0:0:
384,192,18223,1,0,0:0:0:0:
213,192,18449,1,0,0:0:0:0:
298,192,18449,1,0,0:0:0:0:
128,192,18675,1,0,0:0:0:0:
384,192,18675,1,0,0:0:0:0:
213,192,18900,1,0,0:0:0:0:
469,192,18900,1,0,0:0:0:0:
298,192,19126,1,0,0:0:0:0:
128,192,19126,1,0,0:0:0:0:
42,192,19351,1,0,0:0:0:0:
213,192,19351,1,0,0:0:0:0:
384,192,19351,1,0,0:0:0:0:
128,192,19577,1,0,0:0:0:0:
298,192,19577,1,0,0:0:0:0:
213,192,19690,1,0,0:0:0:0:
298,192,19802,1,0,0:0:0:0:
128,192,19802,1,0,0:0:0:0:
213,192,20028,1,0,0:0:0:0:
42,192,20028,1,0,0:0:0:0:
384,192,20028,1,0,0:0:0:0:
298,192,20254,1,0,0:0:0:0:
128,192,20254,1,0,0:0:0:0:
469,192,20254,1,0,0:0:0:0:
213,192,20366,1,0,0:0:0:0:
128,192,20479,1,0,0:0:0:0:
298,192,20479,1,0,0:0:0:0:
384,192,20705,1,0,0:0:0:0:
213,192,20705,1,0,0:0:0:0:
128,192,20930,1,0,0:0:0:0:
469,192,20930,1,0,0:0:0:0:
298,192,21156,1,0,0:0:0:0:
213,192,21156,1,0,0:0:0:0:
384,192,21269,1,0,0:0:0:0:
42,192,21381,1,0,0:0:0:0:
128,192,21381,1,0,0:0:0:0:
384,192,21494,1,0,0:0:0:0:
384,192,21607,1,0,0:0:0:0:
213,192,21607,1,0,0:0:0:0:
128,192,21833,1,0,0:0:0:0:
298,192,21833,1,0,0:0:0:0:
469,192,21833,128,0,22284:0:0:0:0:
213,192,22058,1,0,0:0:0:0:
42,192,22284,1,0,0:0:0:0:
384,192,22284,1,0,0:0:0:0:
128,192,22509,1,0,0:0:0:0:
298,192,22509,1,0,0:0:0:0:
384,192,22622,1,0,0:0:0:0:
42,192,22735,1,0,0:0:0:0:
469,192,22735,1,0,0:0:0:0:
213,192,22735,1,0,0:0:0:0:
469,192,22848,1,0,0:0:0:0:
384,192,22960,1,0,0:0:0:0:
128,192,22960,1,0,0:0:0:0:
42,192,23073,1,0,0:0:0:0:
42,192,23186,1,0,0:0:0:0:
298,192,23186,128,0,23411:0:0:0:0:
128,192,23411,1,0,0:0:0:0:
384,192,23524,1,0,0:0:0:0:
213,192,23524,1,0,0:0:0:0:
42,192,23637,1,0,0:0:0:0:
469,192,23637,1,0,0:0:0:0:
298,192,23637,1,0,0:0:0:0:
128,192,23750,1,0,0:0:0:0:
384,192,23750,1,0,0:0:0:0:
298,192,23863,5,0,0:0:0:0:
213,192,23863,1,0,0:0:0:0:
384,192,23975,1,0,0:0:0:0:
128,192,23975,1,0,0:0:0:0:
42,192,24088,128,0,25442:0:0:0:0:
469,192,24088,128,0,25442:0:0:0:0:
298,192,25442,1,0,0:0:0:0:
469,192,25893,1,0,0:0:0:0:
42,192,25893,1,0,0:0:0:0:
384,192,26118,1,0,0:0:0:0:
128,192,26118,1,0,0:0:0:0:
298,192,26231,1,0,0:0:0:0:
469,192,26344,1,0,0:0:0:0:
213,192,26344,1,0,0:0:0:0:
42,192,26344,1,0,0:0:0:0:
298,192,26569,1,0,0:0:0:0:
128,192,26569,1,0,0:0:0:0:
384,192,26682,1,0,0:0:0:0:
213,192,26682,1,0,0:0:0:0:
469,192,26795,1,0,0:0:0:0:
42,192,26795,1,0,0:0:0:0:
298,192,27133,1,0,0:0:0:0:
42,192,27246,1,0,0:0:0:0:
469,192,27472,1,0,0:0:0:0:
42,192,27472,1,0,0:0:0:0:
